Российские телеканалы в 16:9 и HD

Наблюдения за эфирными ТВ станциями

Re: Российские телеканалы в 16:9 и HD

Сообщение Dionisius » 11 янв 2017, 18:01

Насчёт ГТРК Красноярск и ГТРК Калуга вы не интересовались? Вчера им писал, но мне так и не ответили(
Dionisius

 
Сообщений: 127
Зарегистрирован: 03 авг 2015, 23:12

Реклама

Реклама
Google
 

Re: Российские телеканалы в 16:9 и HD

Сообщение Igoruhin98 » 11 янв 2017, 18:55

Ещё интересно, как будут вставлять свои программы ГТРК, вещающие в 4:3? Как бы не повторилось, как они поступали с "Россией 24".
Igoruhin98

 
Сообщений: 5
Зарегистрирован: 10 янв 2017, 18:16

Re: Российские телеканалы в 16:9 и HD

Сообщение Клычёв Андрей3 » 14 янв 2017, 20:09

Интересно, почему в тв программе Россия1 с 15 на 16-е января нет профилактики? https://russia.tv/tvp/index/date/15-01-2017
Клычёв Андрей3

 
Сообщений: 77
Зарегистрирован: 23 мар 2015, 23:32
Откуда: Россия, Архангельск

Re: Российские телеканалы в 16:9 и HD

Сообщение Sat36 » 14 янв 2017, 20:13

Потому что наверное профилактика будет в понедельник 16 января.
Degen DE1103.
Группа в контакте https://vk.com/fmtv36
Sat36

 
Сообщений: 207
Зарегистрирован: 15 дек 2009, 00:57
Откуда: Воронеж

Re: Российские телеканалы в 16:9 и HD

Сообщение Snows93 » 15 янв 2017, 01:36

Dionisius писал(а):Насчёт ГТРК Красноярск и ГТРК Калуга вы не интересовались? Вчера им писал, но мне так и не ответили(

Писал одной с ГТРК Ярославия. Спросила, кто я такой, и почему мне нужно предоставить информацию о переходе. Послала, короче.
Snows93

 
Сообщений: 1020
Зарегистрирован: 18 дек 2009, 19:47
Откуда: Ярославль

Re: Российские телеканалы в 16:9 и HD

Сообщение Тимофеев Тимофей » 15 янв 2017, 05:51

Я тоже у одного из сотрудников телерадиокомпании "Бира" (Биробиджан, Еврейская автономная область) спрашивал про переход с 4:3 на 16:9 формата. И ответ был почти таким же: "К сожалению, мы не предоставляем информацию третьим лицам. Спасибо за понимание!". Но вот, что интересно: на телеканале "Россия-24" (формат 16:9) местные блоки идут в 4:3 формате, растянутом до 16:9, что-то мне подсказывает, что и с "Россия-1" будет тоже самое.
Тимофеев Тимофей

 
Сообщений: 1
Зарегистрирован: 15 янв 2017, 05:35

Re: Российские телеканалы в 16:9 и HD

Сообщение shevellyoff » 15 янв 2017, 22:47

Россия-1 перешла в широкий формат в дубле +8
https://www.youtube.com/watch?v=TY-wTHXvHe4
shevellyoff

 
Сообщений: 175
Зарегистрирован: 04 ноя 2014, 18:25

Re: Российские телеканалы в 16:9 и HD

Сообщение Клычёв Андрей3 » 15 янв 2017, 23:40

А эфир в +8 во сколько по МСК начнётся ?
Клычёв Андрей3

 
Сообщений: 77
Зарегистрирован: 23 мар 2015, 23:32
Откуда: Россия, Архангельск

Re: Российские телеканалы в 16:9 и HD

Сообщение KMG » 15 янв 2017, 23:42

Клычёв Андрей3 писал(а):А эфир в +8 во сколько по МСК начнётся ?

Уже начался он в 21:00 МСК
KMG

 
Сообщений: 287
Зарегистрирован: 06 ноя 2009, 18:04
Откуда: Пенза

Re: Российские телеканалы в 16:9 и HD

Сообщение Клычёв Андрей3 » 15 янв 2017, 23:49

А кто записывал переход полностью, вместе с началом эфира ?
Клычёв Андрей3

 
Сообщений: 77
Зарегистрирован: 23 мар 2015, 23:32
Откуда: Россия, Архангельск

Re: Российские телеканалы в 16:9 и HD

Сообщение alex77 » 16 янв 2017, 00:07

Теперь такие параметры на Россия 1 (MediaInfo с записи)
Код: выделить все
Общее
Идентификатор                            : 1 (0x1)
Полное имя                               : E:\live\Ros1_169.ts
Формат                                   : MPEG-TS
Размер файла                             : 21,2 Мбайт
Продолжительность                        : 59 с.
Режим общего битрейта                    : Переменный
Общий поток                              : 2954 Кбит/сек

Видео
Идентификатор                            : 1021 (0x3FD)
Идентификатор меню                       : 1020 (0x3FC)
Формат                                   : AVC
Формат/Информация                        : Advanced Video Codec
Профиль формата                          : Main@L3
Параметр CABAC формата                   : Да
Параметр ReFrames формата                : 3 кадра
Параметр GOP формата                     : M=4, N=28
Идентификатор кодека                     : 27
Продолжительность                        : 59 с.
Битрейт                                  : 2614 Кбит/сек
Ширина                                   : 720 пикселей
Высота                                   : 576 пикселей
Соотношение сторон                       : 16:9
Частота кадров                           : 25,000 кадров/сек
Стандарт вещания                         : Component
Цветовое пространство                    : YUV
Субдискретизация насыщенности            : 4:2:0
Битовая глубина                          : 8 бит
Тип развёртки                            : Чересстрочная
Метод сохранения типа развёртки          : Раздельные поля
Порядок развёртки                        : Нижнее поле первое
Бит/(Пиксели*Кадры)                      : 0.252
Размер потока                            : 18,6 Мбайт (88%)
Цветовой диапазон                        : Limited
Основные цвета                           : BT.601 PAL
Характеристики трансфера                 : BT.470 System B, BT.470 System G
Коэффициенты матрицы                     : BT.601

Аудио
Идентификатор                            : 1022 (0x3FE)
Идентификатор меню                       : 1020 (0x3FC)
Формат                                   : MPEG Audio
Версия формата                           : Version 1
Профиль формата                          : Layer 2
Идентификатор кодека                     : 4
Продолжительность                        : 59 с.
Вид битрейта                             : Постоянный
Битрейт                                  : 192 Кбит/сек
Каналы                                   : 2 канала
Частота                                  : 48,0 КГц
Метод сжатия                             : С потерями
Задержка видео                           : -712 мс.
Размер потока                            : 1,36 Мбайт (6%)

Текст
Идентификатор                            : 1024 (0x400)-100
Идентификатор меню                       : 1020 (0x3FC)
Формат                                   : Teletext Subtitle
Язык                                     : Russian
Язык, дополнительно                      : For hearing impaired people

Меню
Идентификатор                            : 1020 (0x3FC)
Идентификатор меню                       : 1020 (0x3FC)
Продолжительность                        : 59 с.
Список                                   : 1021 (0x3FD) (AVC) / 1022 (0x3FE) (MPEG Audio) / 1024 (0x400)-100 (Teletext Subtitle, ru)
Язык                                     :  /  / Russian
Название сервиса                         : 02 РОССИЯ-1
Поставщик сервиса                        : РТРС
Тип сервиса                              : advanced codec SD digital television
Последний раз редактировалось alex77 16 янв 2017, 00:49, всего редактировалось 2 раз(а).
Degen DE-1103, Ritmix RPR-7020, Behold TV T8, Yamaha RX-481
alex77

 
Сообщений: 1717
Зарегистрирован: 06 сен 2010, 00:20

Re: Российские телеканалы в 16:9 и HD

Сообщение Trim » 16 янв 2017, 00:11

Клычёв Андрей3 писал(а):А кто записывал переход полностью, вместе с началом эфира ?

Вот
https://youtu.be/q27VWLEu1tw
Администратор групп:
Телевидение и радиостанции в Ульяновске vk.com/tvfm73
Телевидение и радио в Ульяновской области vk.com/ulradiotv
Цифровое телевидение | DVB-T | DVB-T2 vk.com/DVBT2
Trim

 
Сообщений: 263
Зарегистрирован: 03 ноя 2009, 19:25
Откуда: из Ульяновска

Re: Российские телеканалы в 16:9 и HD

Сообщение Lomonosov Mikhail » 16 янв 2017, 00:14

уже выложили сам переход на 16 9 вот- https://www.youtube.com/watch?v=UXbJ01I3fTQ
Lomonosov Mikhail

 
Сообщений: 1
Зарегистрирован: 16 янв 2017, 00:13

Re: Российские телеканалы в 16:9 и HD

Сообщение Степанов Степан » 16 янв 2017, 01:13

Телеканал "Россия-1", как и обещал перешёл на современный формат 16:9!!! :shock:
Комната смеха-Михаил Жванецкий (обычный; Россия-1).png
Дубль-2 (формат-14:9)
Комната смеха-Михаил Жванецкий (обычный; Россия-1).png (174.59 KIB) Просмотров: 114

Комната смеха-Михаил Жванецкий (широкий; Россия-1).png
Дубль-2 (формат-16:9)
Комната смеха-Михаил Жванецкий (широкий; Россия-1).png (199.66 KIB) Просмотров: 114

Ждём, когда остальные телеканалы перейдут на СОВРЕМЕННЫЙ широкоэкранный формат! ;)
Степанов Степан

 
Сообщений: 1
Зарегистрирован: 16 янв 2017, 00:59

Re: Российские телеканалы в 16:9 и HD

Сообщение Клычёв Андрей3 » 16 янв 2017, 01:17

Звук всёрано пока моно.
Клычёв Андрей3

 
Сообщений: 77
Зарегистрирован: 23 мар 2015, 23:32
Откуда: Россия, Архангельск

Пред.След.

Вернуться в ТВ станции

Кто сейчас на форуме

Сейчас этот форум просматривают: нет зарегистрированных пользователей и гости: 1